TR.EmpireG.RU - Торрент-портал » Музыка » YoungBoy Never Broke Again - Ma’ I Got A Family [24-bit Hi-Res, A Gangsta Grillz Special Edition Hosted by DJ Drama] (2022) FLAC
0

YoungBoy Never Broke Again - Ma’ I Got A Family [24-bit Hi-Res, A...

TOLIAXA 21-03-2023, 04:19 Музыка 0 21.03.2023 528.36 MB...
⇒ Основная информация:
Название: Ma’ I Got A Family (A Gangsta Grillz Special Edition Hosted by DJ Drama)
Исполнитель: YoungBoy Never Broke Again
Год: 2022
Жанр: Hip-Hop, Rap
Издатель (лейбл): Never Broke Again, LLC

Продолжительность: 00:46:36
Формат/Кодек: FLAC
Тип рипа: Tracks
Битрейт аудио: Lossless
Разрядность: 24 Bit/44,1 kHz


⇒ Трек-лист

01. Pop Out
02. Rain
03. Sedated
04. Get Right
05. Right Now
06. McQueen
07. Ben Lomond Mountain
08. Kentrell Talk
09. Sport Mode
10. Pay Me
11. All The Problems
12. Chose
13. Rose Gold
14. I Admit (feat. Nicki Minaj)
15. Change On Me
16. King Of The Jungle
17. I Don’t Text Back (feat. Yeat)
18. Act A Fool
19. Kick It

DRM

Время раздачи: 24/7 (минимум до появления первых 3-5 скачавших, на раздачи не возвращаюсь)

Первое правило участника файлообмена: "Скачал сам - дай скачать другому!"


foobar2000 1.5.5 / Замер динамического диапазона (DR) 1.1.1
------------------------------------------------------------------------------
Анализ: YoungBoy Never Broke Again / Ma’ I Got A Family (A Gangsta Grillz Special Edition Hosted by DJ Drama)
--------------------------------------------------------------------------------

DR Пики RMS Продолжительность трека
--------------------------------------------------------------------------------
DR5 -0.20 дБ -6.77 дБ 2:39 01-Pop Out
DR6 -0.20 дБ -8.59 дБ 2:25 02-Rain
DR7 -0.20 дБ -8.57 дБ 2:08 03-Sedated
DR6 -0.20 дБ -7.97 дБ 1:50 04-Get Right
DR5 -0.39 дБ -7.41 дБ 3:32 05-Right Now
DR6 -0.20 дБ -7.24 дБ 2:18 06-McQueen
DR5 -0.20 дБ -7.66 дБ 2:53 07-Ben Lomond Mountain
DR17 -8.97 дБ -27.48 дБ 1:02 08-Kentrell Talk
DR3 -0.30 дБ -6.93 дБ 2:17 09-Sport Mode
DR5 -0.20 дБ -6.74 дБ 2:42 10-Pay Me
DR6 -0.20 дБ -8.51 дБ 2:14 11-All The Problems
DR5 -0.20 дБ -6.88 дБ 2:32 12-Chose
DR5 -0.20 дБ -7.79 дБ 2:07 13-Rose Gold
DR6 -0.20 дБ -7.53 дБ 3:27 14-I Admit (feat. Nicki Minaj)
DR5 -0.20 дБ -6.94 дБ 3:00 15-Change On Me
DR6 -0.20 дБ -7.63 дБ 3:00 16-King Of The Jungle
DR6 -0.28 дБ -7.94 дБ 2:12 17-I Don’t Text Back (feat. Yeat)
DR5 -0.20 дБ -6.97 дБ 2:12 18-Act A Fool
DR4 -0.20 дБ -6.95 дБ 2:06 19-Kick It
--------------------------------------------------------------------------------

Количество треков: 19
Реальные значения DR: DR6

Частота: 44100 Гц
Каналов: 2
Разрядность: 24
Битрейт: 1591 кбит/с
Кодек: FLAC
================================================================================


⇒ DRM

foobar2000 1.5.5 / Замер динамического диапазона (DR) 1.1.1
------------------------------------------------------------------------------
Анализ: YoungBoy Never Broke Again / Ma’ I Got A Family (A Gangsta Grillz Special Edition Hosted by DJ Drama)
--------------------------------------------------------------------------------

DR Пики RMS Продолжительность трека
--------------------------------------------------------------------------------
DR5 -0.20 дБ -6.77 дБ 2:39 01-Pop Out
DR6 -0.20 дБ -8.59 дБ 2:25 02-Rain
DR7 -0.20 дБ -8.57 дБ 2:08 03-Sedated
DR6 -0.20 дБ -7.97 дБ 1:50 04-Get Right
DR5 -0.39 дБ -7.41 дБ 3:32 05-Right Now
DR6 -0.20 дБ -7.24 дБ 2:18 06-McQueen
DR5 -0.20 дБ -7.66 дБ 2:53 07-Ben Lomond Mountain
DR17 -8.97 дБ -27.48 дБ 1:02 08-Kentrell Talk
DR3 -0.30 дБ -6.93 дБ 2:17 09-Sport Mode
DR5 -0.20 дБ -6.74 дБ 2:42 10-Pay Me
DR6 -0.20 дБ -8.51 дБ 2:14 11-All The Problems
DR5 -0.20 дБ -6.88 дБ 2:32 12-Chose
DR5 -0.20 дБ -7.79 дБ 2:07 13-Rose Gold
DR6 -0.20 дБ -7.53 дБ 3:27 14-I Admit (feat. Nicki Minaj)
DR5 -0.20 дБ -6.94 дБ 3:00 15-Change On Me
DR6 -0.20 дБ -7.63 дБ 3:00 16-King Of The Jungle
DR6 -0.28 дБ -7.94 дБ 2:12 17-I Don’t Text Back (feat. Yeat)
DR5 -0.20 дБ -6.97 дБ 2:12 18-Act A Fool
DR4 -0.20 дБ -6.95 дБ 2:06 19-Kick It
--------------------------------------------------------------------------------

Количество треков: 19
Реальные значения DR: DR6

Частота: 44100 Гц
Каналов: 2
Разрядность: 24
Битрейт: 1591 кбит/с
Кодек: FLAC
================================================================================


⇒ DRM

foobar2000 1.5.5 / Замер динамического диапазона (DR) 1.1.1
------------------------------------------------------------------------------
Анализ: YoungBoy Never Broke Again / Ma’ I Got A Family (A Gangsta Grillz Special Edition Hosted by DJ Drama)
--------------------------------------------------------------------------------

DR Пики RMS Продолжительность трека
--------------------------------------------------------------------------------
DR5 -0.20 дБ -6.77 дБ 2:39 01-Pop Out
DR6 -0.20 дБ -8.59 дБ 2:25 02-Rain
DR7 -0.20 дБ -8.57 дБ 2:08 03-Sedated
DR6 -0.20 дБ -7.97 дБ 1:50 04-Get Right
DR5 -0.39 дБ -7.41 дБ 3:32 05-Right Now
DR6 -0.20 дБ -7.24 дБ 2:18 06-McQueen
DR5 -0.20 дБ -7.66 дБ 2:53 07-Ben Lomond Mountain
DR17 -8.97 дБ -27.48 дБ 1:02 08-Kentrell Talk
DR3 -0.30 дБ -6.93 дБ 2:17 09-Sport Mode
DR5 -0.20 дБ -6.74 дБ 2:42 10-Pay Me
DR6 -0.20 дБ -8.51 дБ 2:14 11-All The Problems
DR5 -0.20 дБ -6.88 дБ 2:32 12-Chose
DR5 -0.20 дБ -7.79 дБ 2:07 13-Rose Gold
DR6 -0.20 дБ -7.53 дБ 3:27 14-I Admit (feat. Nicki Minaj)
DR5 -0.20 дБ -6.94 дБ 3:00 15-Change On Me
DR6 -0.20 дБ -7.63 дБ 3:00 16-King Of The Jungle
DR6 -0.28 дБ -7.94 дБ 2:12 17-I Don’t Text Back (feat. Yeat)
DR5 -0.20 дБ -6.97 дБ 2:12 18-Act A Fool
DR4 -0.20 дБ -6.95 дБ 2:06 19-Kick It
--------------------------------------------------------------------------------

Количество треков: 19
Реальные значения DR: DR6

Частота: 44100 Гц
Каналов: 2
Разрядность: 24
Битрейт: 1591 кбит/с
Кодек: FLAC
================================================================================



Уважаемые пользователи!
Не забывайте оставаться на раздаче после того, как скачали торрент! Помогите скачать и другим - поддержите свободный обмен!

Если у вас НЕ получается скачать торрент файл, то используйте VPN или качайте через "Magnet ссылку"!

VPN вы можете приобрести в нашем интернет-магазине!
Размер: 528.36 MB (554022646 Bytes)

YoungBoy Never Broke Again - Ma’ I Got A Family [24-bit Hi-Res, A Gangsta Grillz Special Edition Hosted by DJ Drama] (2022) FLAC Torrent файл YoungBoy Never Broke Again - Ma’ I Got A Family [24-bit Hi-Res, A Gangsta Grillz Special Edition Hosted by DJ Drama] (2022) FLAC Magnet ссылка

(Если ссылка на скачивание файла не доступна - дайте нам знать об этом в комментариях, либо через форму обратной связи.)

Комментарии:

У данной публикации еще нет комментариев. Вы можете быть первым!

Информация о публикации:

  • Автор публикации: TOLIAXA
  • Дата публикации: 21 март 2023 04:19
  • Категория(и) публикации: Музыка
  • Количество просмотров публикации: 0
  • Количество комментариев к публикации: 0

Похожие новости

02 март 2023
Музыка
Gunlod - 2 Albums [24Bit

Жанр: Stoner, Prog, Grunge, Doom Продолжительность: 2 CD, 01:12:57 Кодек: FLAC Битрейт: Lossless|WEB-DL Тип рипа:

Прочитать подробнее
01 март 2023
Музыка
Gunlod - 2 Albums

Жанр: Stoner, Prog, Grunge, Doom Продолжительность: 2 CD, 01:12:57 Кодек: FLAC Битрейт: Lossless|WEB-DL Тип рипа:

Прочитать подробнее
14 февраль 2023
Музыка
VA - Best Hip-Hop 2022

Название: Best Hip-Hop 2022 Исполнитель: VA Год: 2023 Жанр: Hip-Hop, Rap Издатель (лейбл): Warner Music Group -

Прочитать подробнее

Добавить комментарий

Поиск по сайту

Последние комментарии

Календарь

«    Май 2023    »
ПнВтСрЧтПтСбВс
1234567
891011121314
15161718192021
22232425262728
293031 

Реклама